img image001 image001 image001 image001 image001 image001 image001 image001 image001 image001 image001 image001 image001 image001 image001 image001
Planets Sun Sun Sun
Статистика раздачи
Автор: PriZraK | Размер: 1.55 ГБ | Добавлен: 12 фев 2018
Раздают: 8    Качают: 2
Скачать торрент
Скачать торрент
Описание торрента

СообщениеДобавлено: 12 фев 2018 

Девочка-Лисичка / Yobi, the Five Tailed Fox / Cheon-nyeon-yeo-woo Yeo-woo-bi / 천년여우 여우비
Оценка релиза: 

Перевод:
    Профессиональный (полное дублирование)
    Профессиональный (многоголосый, закадровый) - внешним файлом
Субтитры: русские (*srt) - полные (для DUB)
Хардсаб: отсутствует
Формат: DVDRip, AVI, XviD, AC3
Страна: Южная Корея
Режиссер: Ли Сон-ган / Lee Seong-gang
Жанр: мультфильм, приключения, фэнтези
Продолжительность: 01:25:30
Год выпуска: 2007
В ролях: Сон Йе Джин, Кон Хён Джин, Рю Док Хван, Чхве До Ёнъ
Описание:
В корейских горах до сих пор водятся знаменитые лисы-оборотни. Они хитры, неуловимы и способны похищать человеческие души.
Юби – тоже лисица; правда, хвостов у нее только пять, лет ей всего-навсего сто, и нет ни одной похищенной души в активе. Собственно, ей сейчас не до людских душ: неподалеку от ее норы разбился корабль инопланетян, и добрая Юби предоставила потерпевшим стол и кров. Для пришельцев главное – не показываться людям на глаза, пока их тарелка не будет исправлена. Но легко ли это устроить, ведь рядом с домом Юби открыта школа для проблемных детей...



Мировая премьера: 25 января 2007
Премьера РФ: 11 октября 2007, «RUSCICO»
Релиз на DVD: 10 декабря 2009, «Новый Диск»
Видео: 704x304 (2.32:1), 25 fps, XviD build 73 ~1882 kbps avg, 0.35 bit/pixel
Аудио #1: Русский: 48 kHz, AC3 Dolby Digital, 3/2 (L,C,R,l,r) + LFE ch, ~384.00 kbps avg [Профессиональный (полное дублирование)]
Аудио #2: Корейский: 48 kHz, AC3 Dolby Digital, 2/0 (L,R) ch, ~192.00 kbps avg [Оригинал]
Аудио #3: Русский: 48 kHz, MP3 Dolby Digital, 2/0 (L,R) ch, ~128.00 kbps avg [Профессиональный (многоголосый, закадровый)] (внешним файлом)



Релиз от ___Автор рипа

General
Complete name : C:\Users\666\Desktop\работа\Yobi_the_Five_Tailed_Fox_DVDRip_Dub.avi
Format : AVI
Format/Info : Audio Video Interleave
File size : 1.48 GiB
Duration : 1h 25mn
Overall bit rate : 2 474 Kbps
Movie name : Yobi, the Five Tailed Fox [ripped by domin8]
Genre : Adventure
Writing application : VirtualDubMod 1.5.10.3 | www.virtualdub-fr.org || (build 2550/release)
Original source form/Name : Anime

Video
ID : 0
Format : MPEG-4 Visual
Format profile : Advanced [email protected]
Format settings, BVOP : 1
Format settings, QPel : No
Format settings, GMC : No warppoints
Format settings, Matrix : Custom
Codec ID : XVID
Codec ID/Hint : XviD
Duration : 1h 25mn
Bit rate : 1 884 Kbps
Width : 704 pixels
Height : 304 pixels
Display aspect ratio : 2.35:1
Frame rate : 25.000 fps
Color space : YUV
Chroma subsampling : 4:2:0
Bit depth : 8 bits
Scan type : Progressive
Compression mode : Lossy
Bits/(Pixel*Frame) : 0.352
Stream size : 1.13 GiB (76%)
Writing library : XviD 73

Audio #1
ID : 1
Format : AC-3
Format/Info : Audio Coding 3
Mode extension : CM (complete main)
Format settings, Endianness : Big
Codec ID : 2000
Duration : 1h 25mn
Bit rate mode : Constant
Bit rate : 384 Kbps
Channel(s) : 6 channels
Channel positions : Front: L C R, Side: L R, LFE
Sampling rate : 48.0 KHz
Bit depth : 16 bits
Compression mode : Lossy
Stream size : 235 MiB (16%)
Alignment : Split accross interleaves
Interleave, duration : 40 ms (1.00 video frame)
Interleave, preload duration : 500 ms
Title : rus

Audio #2
ID : 2
Format : AC-3
Format/Info : Audio Coding 3
Mode extension : CM (complete main)
Format settings, Endianness : Big
Codec ID : 2000
Duration : 1h 25mn
Bit rate mode : Constant
Bit rate : 192 Kbps
Channel(s) : 2 channels
Channel positions : Front: L R
Sampling rate : 48.0 KHz
Bit depth : 16 bits
Compression mode : Lossy
Stream size : 117 MiB (8%)
Alignment : Split accross interleaves
Interleave, duration : 40 ms (1.00 video frame)
Interleave, preload duration : 500 ms
Title : kor























   Похожие торренты   Торрент   Размер 
В этой теме нет новых непрочитанных сообщений. Девочка-Лисичка / Yeu woo bi / Yobi, the Five Tailed Fox (2007) DVDRip

19 | 5

743.25 МБ

В этой теме нет новых непрочитанных сообщений. Девочка-Лисичка / Yeu woo bi / Yobi, the Five Tailed Fox (2007) DVDRip

195 | 3

1.46 ГБ

В этой теме нет новых непрочитанных сообщений. Савва. Сердце воина (Максим Фадеев) [2015, мультфильм, приключения, фэнтези, BDRip]

2 | 0

1.47 ГБ

В этой теме нет новых непрочитанных сообщений. Савва. Сердце воина (Максим Фадеев) [2015, мультфильм, приключения, фэнтези, WEB-DLRip]

468 | 6

703.78 МБ

В этой теме нет новых непрочитанных сообщений. Савва. Сердце воина (Максим Фадеев) [2015, мультфильм, приключения, фэнтези, WEB-DLRip]

1157 | 10

1.37 ГБ

В этой теме нет новых непрочитанных сообщений. Принцесса-русалочка / The Mermaid Princess (Адам Цю / Adam Qiu) [2016, мультфильм, фэнтези, приключения, WEBRip] DVO

19 | 4

1.37 ГБ

В этой теме нет новых непрочитанных сообщений. Путеводная звезда / The Star (Тимоти Рекарт) [2017, Мультфильм, семейный, приключения, фэнтези, комедия, BDRip] DUB

35 | 6

1.37 ГБ




Вы не можете начинать темы
Вы не можете отвечать на сообщения
Вы не можете редактировать свои сообщения
Вы не можете удалять свои сообщения
Вы не можете добавлять вложения

Перейти:  
Для Мосгорсуда, Роскомнадзора и рекламодателей: mosgorsud-torrent[собачка]yandex.ru
 Вход
ppkBB3cker v.2 © 2008-2014 @ PPK
[ Time : 0.575s | 16 Queries | GZIP : Off ]

cron