img image001 image001 image001 image001 image001 image001 image001 image001 image001 image001 image001 image001 image001 image001 image001 image001
Planets Sun Sun Sun
Статистика раздачи
Автор: Снежана | Размер: 1.46 ГБ | Добавлен: 17 мар 2018
Раздают: 789    Качают: 24
Скачать торрент
Скачать торрент
Описание торрента

СообщениеДобавлено: 17 мар 2018 

Фердинанд / Ferdinand


Перевод: Профессиональный (полное дублирование) Лицензия BD EUR
Cубтитры: Русские (полные + форс.)
Формат: BDRip-AVC, MKV, H.264, AC3
Страна: США
Режиссер: Карлос Салдана
Жанр: Семейный, комедия, мультфильм
Продолжительность: 01:48:05
Год выпуска: 2017
В ролях: Джон Сина, Кейт МакКиннон, Дэвид Теннант, Бобби Каннавейл, Энтони Андерсон, Джек Гор, Джет Юргенсмейер, Найл Диас, Колин Х. Мерфи, Карлос Салдана
Описание: Фердинанд — самый добродушный бык во всей Испании. Несмотря на внушительные размеры и недюжинную силу, он с детства предпочитал сидеть на лужайке и любоваться цветами вместо того, чтобы бодаться с другими быками. По нелепой случайности Фердинанд был выбран среди других соплеменников для участия в бое быков в Мадриде.



Видео: 1012x424 (2.40:1), 23,976 fps, AVC MPEG-4 (x264), , ~ 1 486 kb/s, 0.144 bit/pixel
Аудио: 48 kHz, AC3 Dolby Digital, 3/2 (L,C,R,l,r) + LFE ch, ~ 448 kbps avg





Общее
Уникальный идентификатор : 190305476200489785258535599937680503399 (0x8F2B806395A4C5319E2657F35F92F267)
Полное имя : E:\Закачка-2\Ferdinand.2017.RUS.BDRip.x264.-HELLYWOOD.mkv
Формат : Matroska
Версия формата : Version 4 / Version 2
Размер файла : 1,46 Гбайт
Продолжительность : 1 ч. 48 м.
Общий поток : 1934 Кбит/сек
Название фильма : Ferdinand (2017)
Дата кодирования : UTC 2018-03-15 17:47:54
Программа кодирования : mkvmerge v5.9.0 ('On The Loose') built on Dec 15 2012 16:39:58
Библиотека кодирования : libebml v1.3.0 + libmatroska v1.4.0

Видео
Идентификатор : 1
Формат : AVC
Формат/Информация : Advanced Video Codec
Профиль формата :
Параметр CABAC формата : Да
Параметр ReFrames формата : 12 кадров
Идентификатор кодека : V_MPEG4/ISO/AVC
Продолжительность : 1 ч. 48 м.
Битрейт : 1486 Кбит/сек
Ширина : 1012 пикселей
Высота : 424 пикселя
Соотношение сторон : 2,40:1
Режим частоты кадров : Постоянный
Частота кадров : 23,976 (24000/1001) кадра/сек
Цветовое пространство : YUV
Субдискретизация насыщенности : 4:2:0
Битовая глубина : 8 бит
Тип развёртки : Прогрессивная
Бит/(Пиксели*Кадры) : 0.144
Размер потока : 1,09 Гбайт (75%)
Заголовок : potroks
Библиотека кодирования : x264 core 155 r2901M 7d0ff22
Настройки программы : cabac=1 / ref=12 / deblock=1:-1:-1 / analyse=0x3:0x131 / me=umh / subme=11 / psy=1 / psy_rd=1.00:0.10 / mixed_ref=1 / me_range=48 / chroma_me=1 / trellis=2 / 8x8dct=1 / cqm=0 / deadzone=21,11 / fast_pskip=0 / chroma_qp_offset=-3 / threads=9 / lookahead_threads=2 / sliced_threads=0 / nr=0 / decimate=0 / interlaced=0 / bluray_compat=0 / constrained_intra=0 / bframes=13 / b_pyramid=2 / b_adapt=2 / b_bias=0 / direct=3 / weightb=1 / open_gop=0 / weightp=2 / keyint=240 / keyint_min=23 / scenecut=40 / intra_refresh=0 / rc_lookahead=100 / rc=2pass / mbtree=0 / bitrate=1486 / ratetol=1.0 / qcomp=0.70 / qpmin=0 / qpmax=69 / qpstep=4 / cplxblur=20.0 / qblur=0.5 / vbv_maxrate=50000 / vbv_bufsize=50000 / nal_hrd=none / filler=0 / ip_ratio=1.40 / pb_ratio=1.30 / aq=2:0.80
Язык : English
Default : Да
Forced : Нет

Аудио
Идентификатор : 2
Формат : AC-3
Формат/Информация : Audio Coding 3
Расширение режима : CM (complete main)
Параметр Endianness формата : Big
Идентификатор кодека : A_AC3
Продолжительность : 1 ч. 48 м.
Вид битрейта : Постоянный
Битрейт : 448 Кбит/сек
Каналы : 6 каналов
Расположение каналов : Front: L C R, Side: L R, LFE
Частота : 48,0 КГц
Частота кадров : 31,250 кадров/сек (1536 spf)
Метод сжатия : С потерями
Размер потока : 347 Мбайт (23%)
Заголовок : Dub | DD 5.1 @ 448 kbps - Blu-ray EUR
Язык : Russian
Default : Да
Forced : Нет

Текст #1
Идентификатор : 3
Формат : UTF-8
Идентификатор кодека : S_TEXT/UTF8
Идентификатор кодека/Информация : UTF-8 Plain Text
Заголовок : Forced
Язык : Russian
Default : Да
Forced : Нет

Текст #2
Идентификатор : 4
Формат : UTF-8
Идентификатор кодека : S_TEXT/UTF8
Идентификатор кодека/Информация : UTF-8 Plain Text
Заголовок : Blu-ray EUR
Язык : Russian
Default : Нет
Forced : Нет

Меню
00:00:00.000 : :Chapter 01
00:03:37.800 : :Chapter 02
00:08:10.281 : :Chapter 03
00:11:51.460 : :Chapter 04
00:16:23.524 : :Chapter 05
00:24:14.870 : :Chapter 06
00:28:30.458 : :Chapter 07
00:34:03.124 : :Chapter 08
00:37:53.187 : :Chapter 09
00:40:54.160 : :Chapter 10
00:44:55.359 : :Chapter 11
00:49:15.994 : :Chapter 12
00:53:27.245 : :Chapter 13
00:59:40.952 : :Chapter 14
01:03:20.671 : :Chapter 15
01:06:23.270 : :Chapter 16
01:09:19.822 : :Chapter 17
01:12:18.917 : :Chapter 18
01:17:33.940 : :Chapter 19
01:20:55.058 : :Chapter 20
01:25:33.837 : :Chapter 21
01:30:38.391 : :Chapter 22
01:36:01.839 : :Chapter 23
01:38:01.166 : :Chapter 24






   Похожие торренты   Торрент   Размер 
В этой теме нет новых непрочитанных сообщений. Фердинанд / Ferdinand (Карлос Салдана ) [2017, Семейный, комедия, мультфильм , BDRip] DUB

2445 | 50

1.46 ГБ

В этой теме нет новых непрочитанных сообщений. Фердинанд / Ferdinand (Карлос Салдана ) [2017, Семейный, комедия, мультфильм, BDRip] DUB

58 | 8

744.75 МБ

В этой теме нет новых непрочитанных сообщений. Фердинанд / Ferdinand (Карлос Салдана ) [2017, Семейный, комедия, мультфильм , BDRip 720p] 2xDUB (rus)+DUB (ukr) / Мультфильмы (HD/BD Video)

223 | 8

6.02 ГБ

В этой теме нет новых непрочитанных сообщений. Фердинанд / Ferdinand (Карлос Салдана ) [2017, Семейный, комедия, мультфильм , BDRip 1080p] 2xDUB (rus)+DUB (ukr) / Мультфильмы (HD/BD Video)

478 | 25

9.57 ГБ

В этой теме нет новых непрочитанных сообщений. Босс-молокосос / The Boss Baby (Том МакГрат) [2017, мультфильм, комедия, семейный, BDRip-AVC] DUB

83 | 12

1.95 ГБ

В этой теме нет новых непрочитанных сообщений. Босс-молокосос / The Boss Baby (Том МакГрат) [2017, мультфильм, комедия, семейный, BDRip-AVC ] DUB

34 | 6

1.46 ГБ

В этой теме нет новых непрочитанных сообщений. Босс-молокосос / The Boss Baby (Том МакГрат) [2017, мультфильм, комедия, семейный, BDRip-AVC] DUB

61 | 6

1.99 ГБ




Вы не можете начинать темы
Вы не можете отвечать на сообщения
Вы не можете редактировать свои сообщения
Вы не можете удалять свои сообщения
Вы не можете добавлять вложения

Перейти:  
Для Мосгорсуда, Роскомнадзора и рекламодателей: mosgorsud-torrent[собачка]yandex.ru
 Вход
ppkBB3cker v.2 © 2008-2014 @ PPK
[ Time : 0.043s | 17 Queries | GZIP : Off ]

cron